Login
Username:
Password:
[Signup]
[Recover Account]


Browse Torrents

Poll


You must be logged in to view polls



Latest Torrents
Hawaii.Five-0.2010...
- [Size: 4.16 GB]

Strike.Back.S07E04...
- [Size: 401.35 MB]

Secrets.of.the.Mor...
- [Size: 212.49 MB]

Secrets.of.the.Mor...
- [Size: 211.47 MB]

Ralph.Breaks.the.I...
- [Size: 803.21 MB]


Torrent Details For "(18+) The Anniversary Surprise (2019) ULLU Hindi 720p Ep(01-03) Untouched WEBHD x264 AAC 500MB ..."

(18+) The Anniversary Surprise (2019) ULLU Hindi 720p Ep(01-03) Untouched WEBHD x264 AAC 500MB ...

Download this torrent | Magnet Download
Health:
Seeds: 3,920
Leechers: 1,137
Completed: 18,720 
Last Checked: 09-02-2019 22:18:14
External Torrent
Update Stats



Images Host

Poster


Watch-Free-HD     Download

Details
Name:(18+) The Anniversary Surprise (2019) ULLU Hindi 720p Ep(01-03) Untouched WEBHD x264 AAC 500MB ...
Description:
Our Site    http://movcr.cc


(18+) [www.MovCr.cc]-The Anniversary Surprise (2019) Hindi 720p Ep(01-03) Untouched WEBHD x264 AAC 500MB[MovCr Exclusive]



 


Video
ID                                       : 1
Format                                   : AVC
Format/Info                              : Advanced Video Codec
Format profile                           : [email protected]
Format settings                          : 3 Ref Frames
Format settings, CABAC                   : No
Format settings, RefFrames               : 3 frames
Codec ID                                 : V_MPEG4/ISO/AVC
Duration                                 : 13 min 7 s
Bit rate                                 : 1 800 kb/s
Width                                    : 1 280 pixels
Height                                   : 720 pixels
Display aspect ratio                     : 16:9
Frame rate mode                          : Constant
Frame rate                               : 25.000 FPS
Color space                              : YUV
Chroma subsampling                       : 4:2:0
Bit depth                                : 8 bits
Scan type                                : Progressive
Bits/(Pixel*Frame)                       : 0.078
Stream size                              : 169 MiB (93%)
Title                                    : www.Movcr.cc
Writing library                          : x264 core 157 r2935 545de2f
Encoding settings                        : cabac=0 / ref=3 / deblock=1:0:0 / analyse=0x1:0x111 / me=hex / subme=7 / psy=1 / psy_rd=1.00:0.00 / mixed_ref=1 / me_range=16 / chroma_me=1 / trellis=1 / 8x8dct=0 / cqm=0 / deadzone=21,11 / fast_pskip=1 / chroma_qp_offset=-2 / threads=15 / lookahead_threads=2 / sliced_threads=0 / nr=0 / decimate=1 / interlaced=0 / bluray_compat=0 / constrained_intra=0 / bframes=0 / weightp=0 / keyint=250 / keyint_min=25 / scenecut=40 / intra_refresh=0 / rc_lookahead=40 / rc=abr / mbtree=1 / bitrate=1800 / ratetol=1.0 / qcomp=0.60 / qpmin=0 / qpmax=69 / qpstep=4 / ip_ratio=1.40 / aq=1:1.00
Language                                 : Hindi
Default                                  : Yes
Forced                                   : No

Audio
ID                                       : 2
Format                                   : AAC
Format/Info                              : Advanced Audio Codec
Format profile                           : LC
Codec ID                                 : A_AAC-2
Duration                                 : 13 min 7 s
Bit rate                                 : 128 kb/s
Channel(s)                               : 2 channels
Channel positions                        : Front: L R
Sampling rate                            : 48.0 kHz
Frame rate                               : 46.875 FPS (1024 SPF)
Compression mode                         : Lossy
Stream size                              : 12.0 MiB (7%)
Title                                    : www.Movcr.cc
Language                                 : Hindi
Default                                  : Yes
Forced                                   : No




 
 
 
 
 
 
 
 
 
 
Category:TV > Indian
Lang:Hindi
Total Size:521.60 MB
Info Hash:c13152a6d33e00c6e224d64a78306853ab3f02f4
Added By:Kingmaker
Date Added:09-02-2019 07:13:10
Downloads:3,412

Ratings:Not Yet Rated (Log in to rate it)


Tracker:
udp://tracker.coppersurfer.tk:6969/announce


File List: 


Comments

No comments still posted

Top
Copyright 2018 DownloadHD -|- Page Generated In 1.026462 secs.
-|- RSS Feed -|- Feed Info