Login
Username:
Password:
[Signup]
[Recover Account]


Browse Torrents

Poll


You must be logged in to view polls



Latest Torrents
Kala Shah Kala 201...
- [Size: 1,014.98 MB]

Amavas (2019) Hind...
- [Size: 410.35 MB]

Americas.Got.Talen...
- [Size: 1.18 GB]

Amavas (2019) Hind...
- [Size: 1.26 GB]

Chaal Jeevi Laiye ...
- [Size: 567.58 MB]


Torrent Details For "The Hate U Give 2018 720p BluRay x264 Dual Audio [Hindi DD 5.1 - English 2.0] ESub [MW]"

The Hate U Give 2018 720p BluRay x264 Dual Audio [Hindi DD 5.1 - English 2.0] ESub [MW]

Download this torrent | Magnet Download
Health:
Seeds: 41
Leechers: 41
Completed: 649 
Last Checked: 16-02-2019 08:36:15
External Torrent
Update Stats



Images Host

Poster
No poster


Watch-Free-HD     Download

Details
Name:The Hate U Give 2018 720p BluRay x264 Dual Audio [Hindi DD 5.1 - English 2.0] ESub [MW]
Description:

 


General
Format                                   : Matroska
Format version                           : Version 4
File size                                : 1.32 GiB
Duration                                 : 2 h 13 min
Overall bit rate                         : 1 424 kb/s

Video
ID                                       : 1
Format                                   : AVC
Format/Info                              : Advanced Video Codec
Format profile                           : [email protected]
Format settings                          : CABAC / 4 Ref Frames
Format settings, CABAC                   : Yes
Format settings, RefFrames               : 4 frames
Codec ID                                 : V_MPEG4/ISO/AVC
Duration                                 : 2 h 13 min
Bit rate                                 : 1 050 kb/s
Width                                    : 1 280 pixels
Height                                   : 534 pixels
Display aspect ratio                     : 2.40:1
Original display aspect ratio            : 2.40:1
Frame rate mode                          : Constant
Frame rate                               : 23.976 (24000/1001) FPS
Color space                              : YUV
Chroma subsampling                       : 4:2:0
Bit depth                                : 8 bits
Scan type                                : Progressive
Bits/(Pixel*Frame)                       : 0.064
Stream size                              : 999 MiB (74%)
Writing library                          : x264 core 157

Audio #1
ID                                       : 2
Format                                   : AC-3
Format/Info                              : Audio Coding 3
Commercial name                          : Dolby Digital
Codec ID                                 : A_AC3
Duration                                 : 2 h 13 min
Bit rate mode                            : Constant
Bit rate                                 : 224 kb/s
Channel(s)                               : 6 channels
Channel layout                           : L R C LFE Ls Rs
Sampling rate                            : 48.0 kHz
Frame rate                               : 31.250 FPS (1536 SPF)
Bit depth                                : 16 bits
Compression mode                         : Lossy
Stream size                              : 213 MiB (16%)
Language                                 : Hindi
Service kind                             : Complete Main
Default                                  : Yes
Forced                                   : No

Audio #2
ID                                       : 3
Format                                   : AAC LC
Codec ID                                 : A_AAC-2
Duration                                 : 2 h 13 min
Bit rate                                 : 132 kb/s
Channel(s)                               : 2 channels
Channel layout                           : L R
Sampling rate                            : 48.0 kHz
Frame rate                               : 46.875 FPS (1024 SPF)
Compression mode                         : Lossy
Stream size                              : 128 MiB (9%)
Language                                 : English
Default                                  : No
Forced                                   : No

Text #1
ID                                       : 4
Format                                   : UTF-8
Codec ID                                 : S_TEXT/UTF8
Codec ID/Info                            : UTF-8 Plain Text
Duration                                 : 2 h 12 min
Bit rate                                 : 82 b/s
Count of elements                        : 2456
Stream size                              : 80.1 KiB (0%)
Default                                  : Yes
Forced                                   : No


Click To View Image

 http://pichub.site/image/kLscX
 http://pichub.site/image/kLXeI
 http://pichub.site/image/kL3v8
 http://pichub.site/image/kLZHJ
 http://pichub.site/image/kLHgh
 http://pichub.site/image/kL9S5

Category:Movies > Hollywood Dub
Lang:Hindi
Total Size:1.32 GB
Info Hash:230d158059c47bdb5afafc9bb7528e41016d0545
Added By:Freaky
Date Added:11-02-2019 08:36:03
Downloads:223

Ratings:Not Yet Rated (Log in to rate it)


Tracker:
udp://tracker.coppersurfer.tk:6969/announce


File List: 


Comments

No comments still posted

Top
Copyright 2018 DownloadHD -|- Page Generated In 0.773650 secs.
-|- RSS Feed -|- Feed Info