Login
Username:
Password:
[Signup]
[Recover Account]


Browse Torrents

Poll


You must be logged in to view polls



Latest Torrents
Kala Shah Kala 201...
- [Size: 1,014.98 MB]

Amavas (2019) Hind...
- [Size: 410.35 MB]

Americas.Got.Talen...
- [Size: 1.18 GB]

Amavas (2019) Hind...
- [Size: 1.26 GB]

Chaal Jeevi Laiye ...
- [Size: 567.58 MB]


Torrent Details For "Karma.2019.HDRip.XviD.AC3.LLG"

Karma.2019.HDRip.XviD.AC3.LLG

Download this torrent | Magnet Download
Health:
Seeds: 6
Leechers: 19
Completed: 10 
Last Checked: 12-02-2019 06:04:33
External Torrent
Update Stats



Images Host

Poster
No poster


iMDB
Title: Karma
Year: 2019
Runtime: 85 minutes
Votes: 5
Rating: 6.4/10
Language: Chinese
Tagline: Death is Omnipresent in "Mobile App Serial Murders", Especially to Those Never Supposed to Survive.
Director: Wei-Heng Chung
Writing By: Neng-Ming Chen,Xin-Yi Su,
Produced By: Jerry Shen,Pei-Pei Tu,Ken Yang,Tony Zhang,Zeng Zhen,
Cast:
Andy Bian as
Daniel Hiu Tung Chan as
Jenny Cheng as
Kurt Chou as
Muji Hsu as
Lorene Ren as
Joey Yu as


Watch-Free-HD     Download

Details
Name:Karma.2019.HDRip.XviD.AC3.LLG
Description:

Quote:



******************************Thumbnail:**********************

 

******************************Screenshots:********************

 Screenshot 1

 Screenshot 2

 Screenshot 3

 Screenshot 4

 Screenshot 5

 Screenshot 6

 Screenshot 7

 Screenshot 8

 Screenshot 9

 Screenshot 0


******************************************************

Karma.2019.HDRip.XviD.AC3.LLG.mp4
Format                                   : MPEG-4
Format profile                           : Base Media
Codec ID                                 : isom (isom/iso2/avc1/mp41)
File size                                : 976 MiB
Duration                                 : 1 h 25 min
Overall bit rate mode                    : Variable
Overall bit rate                         : 1 594 kb/s
Writing application                      : Lavf57.83.100

Video
ID                                       : 1
Format                                   : AVC
Format/Info                              : Advanced Video Codec
Format profile                           : [email protected]
Format settings                          : CABAC / 1 Ref Frames
Format settings, CABAC                   : Yes
Format settings, RefFrames               : 1 frame
Codec ID                                 : avc1
Codec ID/Info                            : Advanced Video Coding
Duration                                 : 1 h 25 min
Bit rate mode                            : Variable
Bit rate                                 : 1 207 kb/s
Maximum bit rate                         : 3 600 kb/s
Width                                    : 720 pixels
Height                                   : 400 pixels
Display aspect ratio                     : 16:9
Frame rate mode                          : Constant
Frame rate                               : 23.976 (23976/1000) FPS
Color space                              : YUV
Chroma subsampling                       : 4:2:0
Bit depth                                : 8 bits
Scan type                                : Progressive
Bits/(Pixel*Frame)                       : 0.175
Stream size                              : 739 MiB (76%)
Codec configuration box                  : avcC

Audio
ID                                       : 2
Format                                   : AC-3
Format/Info                              : Audio Coding 3
Commercial name                          : Dolby Digital
Codec ID                                 : ac-3
Duration                                 : 1 h 25 min
Bit rate mode                            : Constant
Bit rate                                 : 384 kb/s
Channel(s)                               : 6 channels
Channel layout                           : L R C LFE Ls Rs
Sampling rate                            : 48.0 kHz
Frame rate                               : 31.250 FPS (1536 SPF)
Bit depth                                : 16 bits
Compression mode                         : Lossy
Stream size                              : 235 MiB (24%)
Service kind                             : Complete Main
Default                                  : Yes
Alternate group                          : 1



********************************************************


Category:Movies > HDRips
Lang:English  English
Total Size:990.65 MB
Info Hash:81b84a37e43e2e295855c59d789054bc72f650e3
Added By:LifeLongg
Date Added:12-02-2019 04:37:51
Downloads:33

Ratings:Not Yet Rated (Log in to rate it)


Tracker:
udp://tracker.openbittorrent.com:80/announce


File List: 


Comments

No comments still posted

Top
Copyright 2018 DownloadHD -|- Page Generated In 1.391277 secs.
-|- RSS Feed -|- Feed Info